#TITLE:V.I.P;
#SUBTITLE:;
#ARTIST:Bada;
#TITLETRANSLIT:;
#SUBTITLETRANSLIT:;
#ARTISTTRANSLIT:;
#CREDIT:;
#BANNER:V.I.P-bn.jpg;
#BACKGROUND:V.I.P-bg.jpg;
#LYRICSPATH:;
#CDTITLE:cdtitle.png;
#MUSIC:V.I.P.ogg;
#OFFSET:0.000;
#SAMPLESTART:59.920;
#SAMPLELENGTH:20.000;
#SELECTABLE:YES;
#BPMS:0.000=112.000;
#STOPS:144.000=0.940
;
#BGCHANGES:;
// cache tags:
#FIRSTBEAT:0.000;
#LASTBEAT:255.250;
#SONGFILENAME:Songs/Music V.I.P ^_^/V.I.P/V.I.P.sm;
#HASMUSIC:1;
#HASBANNER:1;
#MUSICLENGTH:139.296;
// end cache tags

//---------------dance-single - ----------------
#NOTES:
     dance-single:
     :
     Hard:
     8:
     0.738,0.916,1.000,0.057,0.980,561.000,142.000,8.000,0.000,7.000:
0001
0000
0000
0000
1000
0000
1000
0000
0100
0010
0001
0010
0001
0000
0001
0000
,
0001
0000
0000
0000
0001
0000
0001
0010
0100
0010
0100
0000
0100
0000
0100
0000
,
0100
0000
0000
0000
0100
0000
0100
0010
1000
0010
1000
0000
1000
0000
1000
0000
,
1001
0000
0000
0000
0110
0000
1000
0100
0010
0001
0010
0100
1000
0000
0000
0000
,
1000
0100
1010
0010
0001
0100
1001
0000
,
0010
0010
1100
0010
1000
1000
0101
0000
,
0010
0100
0101
0010
0100
1000
0101
0001
,
0110
0000
0000
0000
0110
0110
0000
0000
1001
0110
0000
0110
1001
0000
0000
0000
,
1001
0000
0000
0000
0101
0010
0100
0001
1000
0100
0010
0100
0010
0100
1000
0000
,
0101
0000
0000
0000
1010
0100
0010
1000
0010
0100
0010
0100
0010
0001
0010
0000
,
1100
0000
0000
0000
1001
0010
0100
0001
1000
0100
0010
1000
0010
1000
0010
0000
,
1001
0000
0000
0000
0110
0110
0000
0000
0000
0000
0000
0000
1001
0000
0000
0000
,
1001
0000
0100
0000
0001
0010
0200
0000
0000
0000
0000
0000
1300
0100
0020
0000
,
0000
0000
0000
0000
1030
0100
0010
0001
0010
0100
1000
0000
0001
0000
0010
0000
,
1000
0000
0000
0000
0100
0010
0002
0000
0000
0000
0000
0000
0013
0001
0010
0100
,
1000
0100
0010
0000
0000
0000
0000
0000
1001
1100
0110
1001
0011
0110
1001
1100
,
1001
0000
0000
0000
1001
0100
0020
0000
0000
0000
0000
0000
0031
0010
0200
0000
,
0000
0000
0000
0000
0301
0010
0100
1000
0100
0010
0001
0000
1000
0000
0100
0000
,
0001
0000
1100
0100
0001
0010
1100
0100
,
0001
0000
1100
0010
0001
0010
1100
0001
,
1100
0000
0000
0000
1100
0010
0001
0010
0100
0010
0100
1000
0101
0010
0001
0010
,
1100
0000
0000
0000
1100
0010
0100
1000
0001
0010
0100
0001
1100
0000
0010
0000
,
1100
0000
0000
0000
0011
0100
1000
0100
0010
0001
0010
0001
1100
0000
0000
0000
,
1001
0010
0100
0010
1001
0100
0010
0100
1001
0100
0010
0100
1001
0000
0001
0000
,
0110
0000
0000
0000
0011
0001
0110
0000
1100
0000
0100
0000
1010
0000
0010
0000
,
0101
0000
0000
0000
0110
0001
0010
0000
0100
0000
0010
0000
1001
0000
0010
0000
,
0001
0000
0000
0000
1001
0010
0001
0100
1000
0100
1000
0100
1000
0000
0000
0000
,
0010
0001
0010
1000
,
0100
0001
0100
0010
0001
0001
0001
0010
0100
0000
0000
0000
0101
0000
0010
0100
,
1000
0000
0010
0000
1010
0100
0010
0100
1000
0000
0000
0000
0011
0000
0000
0000
,
1000
0000
0100
0000
1000
1000
1000
0100
0010
0000
0000
0000
0011
0000
1000
0000
,
0100
0010
0001
0010
0100
1000
0100
0001
,
0001
0010
0100
0000
0100
0000
0100
1000
0100
0000
0000
0000
0110
0000
1000
0100
,
0010
1000
0100
0010
0001
0000
1100
0001
,
0010
0100
1000
0000
0011
0000
0100
0000
0100
0000
1000
0000
0110
0000
0000
0000
,
0000
0000
0011
0110
1100
0010
0110
0001
0110
1000
0110
0001
1100
0000
0000
0000
,
1111
1001
0100
0010
0100
0010
0100
0010
0001
1010
0100
1000
0100
1000
0100
1000
,
0010
0011
0100
0001
0100
0001
0100
0001
0010
1001
0010
0001
0010
0001
0010
0001
,
0100
1001
1000
0001
1000
0001
1000
0001
0100
0011
0100
1000
0100
0010
0001
0100
,
0001
0010
0001
0010
0001
0010
0001
0010
0100
1010
0000
0000
0000
1000
0000
0100
,
0000
0001
0000
1100
0000
0011
0000
1000
0000
0011
0000
0011
0000
0011
0100
1000
,
0000
1100
0000
1100
0000
1100
0010
0001
0000
0110
0000
0110
0000
0110
1000
0100
,
0000
1001
0000
1001
0000
1001
1000
0001
0000
0101
0000
0101
0000
0101
0010
0100
,
0000
1010
0000
1010
0000
1010
0100
0010
0000
0110
0000
0000
0000
0110
0000
1001
,
0000
0000
0000
1001
0000
0110
0000
0000
0000
1111
0000
1000
0000
0010
0000
0100
,
0000
1000
0000
0001
0000
0010
0000
1000
0000
0010
0000
0001
0000
0010
0000
0100
,
0000
1000
0000
0000
0000
0000
0000
0000
0000
0010
0000
0100
0000
1000
0000
0100
,
0000
1000
0000
0100
0000
0001
0000
0010
0000
0110
0000
0000
0000
0110
0000
0000
,
0000
0011
0000
0000
0000
1100
0000
0000
0000
0011
0100
1000
0000
0001
0000
0100
,
0000
1100
0010
0001
0010
0100
0000
0000
0000
1010
0000
0010
0100
1000
0100
0010
,
0000
0100
0010
0001
0000
1100
0000
0000
0000
1000
0000
0001
0000
0010
0000
1000
,
0000
0001
0000
0100
0000
0010
0000
1000
0000
1110
0000
0000
0000
1101
0000
0000
,
0000
1011
0000
0000
0000
1110
0000
0000
0000
1101
0000
0000
0000
0110
0000
0001
,
0000
1010
0000
0100
0000
0101
0000
0000
0000
1000
0000
0100
0000
0010
0000
0001
,
0000
0010
0000
0000
0000
1001
0000
0010
0000
0000
0000
0100
0000
0010
0000
1000
,
0000
0001
0000
0000
0000
0110
0000
0000
0000
0000
0000
0010
0000
0001
0000
0010
,
0000
1000
0000
0000
0000
0000
0000
0010
0000
0100
0000
1000
0000
0100
0000
0010
,
0000
0001
0000
0010
0000
0100
0000
0001
0000
0000
0000
0100
0000
1000
0000
0100
,
0000
0010
0000
0000
0000
0000
0000
0100
0000
1000
0000
0100
0000
0010
0000
0001
,
0000
0010
0000
0000
0000
0000
0000
0010
0000
0100
0000
1000
0000
0100
0000
0001
,
0000
0020
0000
0000
0000
0000
0000
0030
0000
1001
0000
1001
0100
1000
0100
1010
,
0001
0010
0001
1010
0100
1000
0000
0000
0000
0101
0000
1010
0100
0010
0001
1010
,
0100
1000
0100
1001
0010
0001
0000
0000
0000
1001
0000
1010
0001
0010
0100
1010
,
0100
0001
0100
1010
0100
0022
0000
0000
0000
0000
0000
0000
0000
0033
0000
0000
;

//---------------dance-single - ----------------
#NOTES:
     dance-single:
     :
     Medium:
     1:
     0.000,0.000,0.000,0.000,0.000,0.000,0.000,0.000,0.000,0.000:
0000
0000
0000
0000
;
